Mechanic Resurrection 2016 HDCAM English x264 Download Watch Online

Mechanic Resurrection 2016 HDCAM English x264 Download Watch Online

Mechanic Resurrection 2016 HDCAM English

Mechanic: Resurrection
2016 ‧ Thriller/Action
Master assassin Arthur Bishop (Jason Statham) must save the woman (Jessica Alba) he loves from deadly kidnappers who want him to take out a handful of targets.
Initial release: 2016 (Belgium)
Director: Dennis Gansel
Film series: The Mechanic film series
Music director: Mark Isham
Screenplay: Philip Shelby, Tony Mosher, Rachel Long, Brian Pittman

Info
==================================================
General
Complete name : Mechanic Resurrection 2016
Format : MPEG-4
Format profile : Base Media / Version 2
Codec ID : mp42
File size : 716 MiB
Duration : 1h 34mn
Overall bit rate mode : Variable
Overall bit rate : 1 065 Kbps

Video
ID : 1
Format : AVC
Format/Info : Advanced Video Codec
Format profile : [email protected]
Format settings, CABAC : Yes
Format settings, ReFrames : 4 frames
Codec ID : avc1
Codec ID/Info : Advanced Video Coding
Duration : 1h 34mn
Bit rate : 900 Kbps
Width : 720 pixels
Height : 320 pixels
Display aspect ratio : 2.25:1
Frame rate mode : Variable
Frame rate : 23.876 fps
Minimum frame rate : 11.989 fps
Maximum frame rate : 23.981 fps
Color space : YUV
Chroma subsampling : 4:2:0
Bit depth : 8 bits
Scan type : Progressive
Bits/(Pixel*Frame) : 0.164
Stream size : 603 MiB (84%)
Writing library : x264 core 144 r2525 40bb568

Audio
ID : 2
Format : AAC
Format/Info : Advanced Audio Codec
Format profile : LC
Codec ID : 40
Duration : 1h 34mn
Bit rate mode : Variable
Bit rate : 161 Kbps
Channel(s) : 2 channels
Channel positions : Front: L R
Sampling rate : 48.0 KHz
Compression mode : Lossy
Stream size : 108 MiB (15%)
Language : English

==================================================
m12

Download Links

Direct Downloads

Watch Online

[the_ad id=”7740″]

3 Comments

  1. Hey bro plzz upload bad moms in english plzzz

  2. Plz upload in hindi

  3. Upland in Hindi

Leave a Reply

%d bloggers like this: