Mechanic Resurrection (2016) Dvdscr Hindi (cleaned) English x264 Download Watch Online

Mechanic Resurrection 2016 Dvdscr Hindi cleaned English x264 Download Watch Online

Mechanic Resurrection 2016 Dvdscr Hindi cleaned English

Mechanic: Resurrection
2016 ‧ Thriller/Action
Master assassin Arthur Bishop (Jason Statham) must save the woman (Jessica Alba) he loves from deadly kidnappers who want him to take out a handful of targets.

 SOURCE – UNKNOWN KING ( Thanx )

Initial release: 2016 (Belgium)
Director: Dennis Gansel
Film series: The Mechanic film series
Music director: Mark Isham
Screenplay: Philip Shelby, Tony Mosher, Rachel Long, Brian Pittman

Info
==================================================
General
Complete name : Mechanic Resurrection 2016
Format : MPEG-4
Format profile : Base Media / Version 2
Codec ID : mp42
File size : %%
Duration : 1h 34mn
Overall bit rate mode : Variable
Overall bit rate : 1 065 Kbps

Video
ID : 1
Format : AVC
Format/Info : Advanced Video Codec
Format profile : [email protected]
Format settings, CABAC : Yes
Format settings, ReFrames : 4 frames
Codec ID : avc1
Codec ID/Info : Advanced Video Coding
Duration : 1h 34mn
Bit rate : 900 Kbps
Width : 720 pixels
Height : 320 pixels
Display aspect ratio : 2.25:1
Frame rate mode : Variable
Frame rate : 23.876 fps
Minimum frame rate : 11.989 fps
Maximum frame rate : 23.981 fps
Color space : YUV
Chroma subsampling : 4:2:0
Bit depth : 8 bits
Scan type : Progressive
Bits/(Pixel*Frame) : 0.164
Stream size : 603 MiB (84%)
Writing library : x264 core 144 r2525 40bb568

Audio
ID : 2
Format : AAC
Format/Info : Advanced Audio Codec
Format profile : LC
Codec ID : 40
Duration : 1h 34mn
Bit rate mode : Variable
Bit rate : 161 Kbps
Channel(s) : 2 channels
Channel positions : Front: L R
Sampling rate : 48.0 KHz
Compression mode : Lossy
Stream size : 108 MiB (15%)
Language : English – HINDI (CLEAN)

==================================================
m12

Mechanic Resurrection 2016 Dvdscr Hindi cleaned English

Sample Link

Download Links

DIRECT DOWNLOAD 

WATCH ONLINE

  • Hey bro plz upload The Super Bodyguard 2016_ Kung fu Superhero movie plz plz ___ Language Jo b ho chalegi plz

  • sir links add krdo…..

  • Thanx bro

  • Vikas

    Sir add the above said movie please…

  • Param josan

    How to download movie

  • hdrip main uplond kar skte ho master

  • khemlal

    ek no. website banaye ho bhai Mechanic Resurrection 2016 ki 720p hindi main kb ayegi bhai or aap ka direct link uske toh kya kehne super fast download eeek no. bhai maja aagaya. main pehle torrent se download krta tha ab iss site se krta hun. bas bhai jaldise latest movie and good print main upload kara kijiye bollywood and hollywood