Beach Girls 2 (2 Headed Shark Attack) 2012 Hindi WEB-HD Untouched 720p & 1080P Hon3yHD Torrent & Direct Download

 Beach Girls 2 (2 Headed Shark Attack) 2012 Hindi WEB-HD Untouched 720p & 1080P Hon3yHD Torrent & Direct Download

Information

Format : MPEG-4
Format profile : Base Media
Codec ID : isom (isom/iso2/avc1/mp41)
File size : 2.25 GiB & 1.25
Duration : 1h 24mn
Overall bit rate mode : Variable
Overall bit rate : 3 802 Kbps

Video

ID : 1
Format : AVC
Format/Info : Advanced Video Codec
Format profile : [email protected]
Format settings, CABAC : Yes
Format settings, ReFrames : 2 frames
Codec ID : avc1
Codec ID/Info : Advanced Video Coding
Duration : 1h 24mn
Bit rate : 3 673 Kbps
Width : 1 920 pixels & 720p
Height : 1 080 pixels
Display aspect ratio : 16:9
Frame rate mode : Constant
Frame rate : 25.000 fps
Color space : YUV
Chroma subsampling : 4:2:0
Bit depth : 8 bits
Scan type : Progressive
Bits/(Pixel*Frame) : 0.071
Stream size : 2.17 GiB (97%)

Audio

ID : 2
Format : AAC
Format/Info : Advanced Audio Codec
Format profile : LC
Codec ID : 40
Duration : 1h 24mn
Bit rate mode : Variable
Bit rate : 126 Kbps
Channel(s) : 2 channels
Channel positions : Front: L R
Sampling rate : 44.1 KHz
Frame rate : 43.066 fps (1024 spf)
Compression mode : Lossy
Stream size : 76.0 MiB (3%)

https://i2.wp.com/extraimago.com/images/2016/05/03/vlcsnap-error608.png?w=830https://i0.wp.com/extraimago.com/images/2016/05/03/vlcsnap-error320.png?w=830https://i2.wp.com/extraimago.com/images/2016/05/03/vlcsnap-error520.png?w=830https://i2.wp.com/extraimago.com/images/2016/05/03/vlcsnap-error533.png?w=830https://i0.wp.com/extraimago.com/images/2016/05/03/vlcsnap-error537.png?w=830https://i2.wp.com/extraimago.com/images/2016/05/03/vlcsnap-error498.png?w=830

https://i2.wp.com/extraimago.com/images/2016/05/03/vlcsnap-error322.png?w=830https://i0.wp.com/extraimago.com/images/2016/05/03/vlcsnap-error496.png?w=830

Download Links

Hon3y Torrent Link 1080p

Hon3y Torrent Link 720p

Watch Online Links

streamin.to
vidgg.to
flashx.tv
nowvideo.sx
cloudy.ec
vodlocker.com

Single Downloadings Links

DOWNLOAD FROM DIRECT LINK   DOWNLOAD TORRENT

indishare.me
bdupload.org
clicknupload.link
uploadkadeh.ir
uploadx.org
upfile.mobi
ozofiles.com
filescdn.com
filecloud.io
uppit.com
nowdownload.sx
userscloud.com
uptobox.com
filefactory.com
usersfiles.com
arabloads.net
tusfiles.net
filesbomb.in
multiup.org
turbobit.net
embedupload.com
4downfiles.net
hugefiles.net
filerio.in

Leave a Reply

%d bloggers like this: