Mothers Day 2016 HDCAM 720p x264 AAC English Download

Mothers Day 2016 HDCAM 720p x264 AAC English Download

day

http://www.imdb.com/title/tt4824302/

Three generations come together in the week leading up to Mother’s Day.

Director: Garry Marshall
Writers: Anya Kochoff (screenplay) (as Anya Kochoff Romano), Matthew Walker (screenplay) (as Matt Walker)
Stars: Jennifer Aniston, Kate Hudson, Julia Roberts
Genres: Comedy | Drama
Country: USA
Language: English

Source: FOM
Sample: added
Encoder: CPG

Note: fix colors, bright, rgb, contrast, a bit blury though

Format : Matroska
File size : 1.61 GiB
Duration : 1h 53mn
Overall bit rate : 2 017 Kbps

Video
ID : 1
Format : AVC
Format/Info : Advanced Video Codec
Format profile : [email protected]
Format settings, CABAC : Yes
Format settings, ReFrames : 3 frames
Codec ID : V_MPEG4/ISO/AVC
Duration : 1h 53mn
Bit rate : 1 900 Kbps
Width : 720 pixels
Height : 336 pixels
Display aspect ratio : 2.143
Frame rate mode : Constant
Frame rate : 29.970 (30000/1001) fps
Color space : YUV
Chroma subsampling : 4:2:0
Bit depth : 8 bits
Scan type : Progressive
Bits/(Pixel*Frame) : 0.262
Stream size : 1.50 GiB (93%)

Audio
ID : 2
Format : AAC
Format/Info : Advanced Audio Codec
Format profile : LC
Codec ID : A_AAC
Duration : 1h 53mn
Bit rate : 128 Kbps
Channel(s) : 2 channels
Channel positions : Front: L R
Sampling rate : 48.0 KHz
Frame rate : 46.875 fps (1024 spf)
Compression mode : Lossy
Stream size : 105 MiB (6%)
Default : Yes
Forced : No

41cb40.th.png 2f0d24.th.png 978917.th.png 3cdd89.th.png 82f1c9.th.png 5ab4e5.th.png

Links: Screenshot | IMDB

Download Links

DOWNLOAD TORRENT

Mothers Day 2016 HDCAM x264 AAC-Exclusive
1.62 GB
Published on: May 31, 2016 @ 23:08

UPLOADED | RapidGaToR | FILEFACTORY | GO4UP | UploadRocket | Nitroflare

Tags: , ,
 

Leave a Reply

Join Our Whatsapp Group For Updates !Click Here For Join
+ +